《美德》又名《单刀直入》又名《火遮眼》又名《720P高清》

[美德][动作/犯罪/惊悚][单刀直入/火遮眼][BD-MKV/2.05G][中英字幕][720P高清]

     Jim Boeke  ....Bad Cop       Larenz Tate  ....Demetrius Hicks       Atian


◎译  名 单刀直入/火遮眼
◎片  名 A Man Apart
◎年  代 2003
◎国  家 美国/德国
◎类  别 动作/犯罪/剧情/惊悚
◎语  言 英语
◎字  幕 中英字幕/中文字幕/英中字幕/英文字幕
◎IMDB评分  5.7/10 (12,406 votes)
◎IMDB链接  http://www.imdb.com/title/tt0266465
◎文件格式 X264 + AC3
◎视频尺寸 1280 X 720
◎文件大小 2.05G
◎片  长 110MiN
◎导  演 F·加里·格雷 F. Gary Gray
◎主  演 Alice Amter  ....Marta
      范·迪塞尔 Vin Diesel  ....Sean Vetter
      Jim Boeke  ....Bad Cop
      Larenz Tate  ....Demetrius Hicks
      Atiana Coons-Parker  ....Rachel Hicks
      肯·戴维蒂安 Ken Davitian  ....Ramon Cadena
      Steve Eastin  ....Ty Frost
      Juan Fernández  ....Mateo Santos
      Aleane Fitz-Carter  ....Old lady
      Robert Fraade  ....Counsel
      Zachary John Gonzales  ....Lucero's son
      Richard Gross  ....Old Agent
      Richard Haje  ....Lucero's Bodyguard
      Terry Hoyos  ....Lucero's Wife (as Terri Hoyos)
      Jeff Kober  ....Pomona Joe
      Thomas Kopache  ....Chief Neal
      Julia Lee  ....Spa Receptionist
      F. Valentino Morales  ....GT Commando
      Miguel Burciaga  ....Gustavo Leon
      杰奎琳·奥拉德丝 Jacqueline Obradors  ....Stacy Vetter
      蒂莫西·奥利芬特 Timothy Olyphant  ....Hollywood Jack
      Scott Reitz  ....DEA agent
      埃米里奥·瑞弗拉 Emilio Rivera  ....Garza
      Joe Rodriguez  ....Mexican Bureaucrat (as Joe Xavier Rodriguez)
      Marco Rodriguez  ....Hondo
      Mik Scriba  ....Prison Guard
      George Sharperson  ....Big Sexy
      Geno Silva  ....Memo Lucero
      Karin 'Yizette' Stephens  ....Candice Hicks (as Karin 'Yizette' Stephens)

◎简  介 

美国和墨西哥的边境的荒漠地带,由于地理位置的优势和两国管理上存在的漏洞,而成为贩毒行动最为猖獗的地方。西恩·维特(范·迪索)从小在街头长大,做事特立独行,是一名出色的DEA(美国药品管理局)缉毒特工,经过长久的艰苦调查和跟踪,他带领着手下的同事终于成功捣毁了一个庞大的贩毒集团,并把集团的龙头老大、臭名昭著的大毒枭卢塞洛(基诺·席尔瓦)送进了监狱。

  本以为这下终于可以安宁一时了,谁知一个绰号为“暗黑破坏神”的神秘人物(蒂莫西·奥利芬特)又迅速把本已经群龙无首的贩毒集团纠集起来,贩毒网络不但没有消失,反而愈发猖狂地发展蔓延了。“暗黑破坏神”更是视西恩为眼中钉,他并用卑鄙的手段,指使人杀害了西恩的爱妻斯黛西(杰奎琳·奥拉德丝),眼看着在这个血腥残酷的世界里惟一能给予他心灵慰藉的爱人死在他怀里,西恩愤怒了,他发誓要不惜一切为妻子报仇。

  同时,在监狱里的前毒品集团头目卢塞洛获悉了“暗黑破坏神”趁虚而入的事实也异常愤怒,答应与ZF合作提供情报,于是西恩利用他对贩毒网络的熟悉,和缉毒组中自己的拍档、黑人特工海克斯(拉伦兹·泰特)组成了一个复仇联盟,共同对付心狠手辣的“暗黑破坏神”……

F:\rmvb资源\[高清MKV收藏www.hdbird.com]\老鸟家园(bbs.hd62.com).单刀直入.720P.中英字幕\单刀直入 A.Man.Apart.2003.BluRay.720p.x264.AC3-WOFEI.mkv
   General
      Complete name : F:\rmvb资源\[高清MKV收藏www.hdbird.com]\老鸟家园(bbs.hd62.com).单刀直入.720P.中英字幕\单刀直入 A.Man.Apart.2003.BluRay.720p.x264.AC3-WOFEI.mkv
      Format : Matroska
      File size : 2.05 GiB
      Duration : 1h 49mn
      Overall bit rate : 2 682 Kbps
      Encoded date : UTC 2010-05-11 14:19:09
      Writing application : mkvmerge v3.3.0 ('Language') 编译于 Mar 24 2010 14:59:24
      Writing library : libebml v0.8.0 + libmatroska v0.9.0
   Video #1
      ID : 1
      Format : AVC
      Format/Info : Advanced Video Codec
      Format profile : High@L4.1
      Format settings, CABAC : Yes
      Format settings, ReFrames : 4 frames
      Muxing mode : Container profile=Unknown@4.1
      Codec ID : V_MPEG4/ISO/AVC
      Duration : 1h 49mn
      Bit rate : 2 180 Kbps
      Nominal bit rate : 2 233 Kbps
      Width : 1 280 pixels
      Height : 720 pixels
      Display aspect ratio : 16:9
      Frame rate : 23.976 fps
      Resolution : 8 bits
      Colorimetry : 4:2:0
      Scan type : Progressive
      Bits/(Pixel*Frame) : 0.099
      Stream size : 1.67 GiB (81%)
      Writing library : x264 core 80 r1376M 3feaec2
      Encoding settings : cabac=1 / ref=4 / deblock=1:-1:-1 / analyse=0x3:0x113 / me=umh / subme=6 / psy=1 / psy_rd=1.0:0.0 / mixed_ref=1 / me_range=16 / chroma_me=1 / trellis=2 / 8x8dct=1 / cqm=0 / deadzone=21,11 / fast_pskip=1 / chroma_qp_offset=-2 / threads=6 / sliced_threads=0 / nr=0 / decimate=1 / mbaff=0 / constrained_intra=0 / bframes=3 / b_pyramid=0 / b_adapt=1 / b_bias=0 / direct=3 / wpredb=1 / wpredp=2 / keyint=250 / keyint_min=25 / scenecut=40 / rc_lookahead=40 / rc=2pass / mbtree=1 / bitrate=2233 / ratetol=1.0 / qcomp=0.60 / qpmin=10 / qpmax=51 / qpstep=4 / cplxblur=20.0 / qblur=0.5 / vbv_maxrate=50000 / vbv_bufsize=50000 / ip_ratio=1.40 / aq=1:1.00
      Language : English
   Audio #2
      ID : 2
      Format : AC-3
      Format/Info : Audio Coding 3
      Codec ID : A_AC3
      Duration : 1h 49mn
      Bit rate mode : Constant
      Bit rate : 448 Kbps
      Channel(s) : 6 channels
      Channel positions : Front: L C R, Surround: L R, LFE
      Sampling rate : 48.0 KHz
      Stream size : 351 MiB (17%)
   Text #3
      ID : 3
      Format : SSA
      Codec ID : S_TEXT/SSA
      Codec ID/Info : Sub Station Alpha
      Title : 中英字幕
   Text #4
      ID : 4
      Format : SSA
      Codec ID : S_TEXT/SSA
      Codec ID/Info : Sub Station Alpha
      Title : 英中字幕
   Text #5
      ID : 5
      Format : UTF-8
      Codec ID : S_TEXT/UTF8
      Codec ID/Info : UTF-8 Plain Text
      Title : 中文字幕
   Text #6
      ID : 6
      Format : UTF-8
      Codec ID : S_TEXT/UTF8
      Codec ID/Info : UTF-8 Plain Text
      Title : 英文字幕

click